RockElectronicPopFolk, CountryJazzFunkHip-hopClassicalReggaeLatinScreenBluesOther recordsFor KidsBrassMiscellaneous
» » Various - Live It Up - Australian Pop Of The 80s
Various - Live It Up - Australian Pop Of The 80s MP3

Performer:

Various

Title:

Live It Up - Australian Pop Of The 80s

Genre:

Electronic / Rock / Pop

MP3 album size:

1350 mb

Label:

Sony Music

Rating:

4.6

Style:

Synth-pop, Pop Rock

Country:

Australia

Date of release:

2009

Catalog:

88697366912

Various - Live It Up - Australian Pop Of The 80s MP3

Tracklist

1RedgumI've Been To Bali Too
2Rick SpringfieldI've Done Everything For You
3Mike McClellanThe One I Love
4The ReelsAfter The News
5EuroglidersWe Will Together
6Hoodoo GurusBittersweet
7Renee GeyerSay I Love You
8Mental As AnythingLive It Up
9Martin PlazaConcrete And Clay
10Uncanny X-MenThe Party
11Moving Pictures Winners
12NoiseworksTouch
13The Monitors Nobody Told Me
14Dragon Young Years
15DugitesWaiting
16Christie AllenHe's My Number One
17Men At WorkBe Good Johnny
18Daryl BraithwaiteOne Summer
19Mi-SexBlue Day
20James ReyneMotor's Too Fast
21Real LifeCatch Me I'm Falling
22Kim HartLove At First Night
23Jane CliftonGirl On The Wall
24Ol' 55Two Faces Have I
25Jon English Camilla
26Sharon O'NeillWords
271927That's When I Think Of You
28Dynamic HepnoticsGotta Be Wrong (Way To Love)
29John FarnhamTwo Strong Hearts
30The CockroachesSome Kind Of Girl
31Big PigHungry Town
32Rose TattooI Wish
33DivinylsScience Fiction
34Little River BandDown On The Border
35Mondo RockState Of The Heart
36The ExpressionWith Closed Eyes
37Billy FieldBad Habits
38Pat Wilson Bop Girl
39SwaneeIf I Were A Carpenter
40Jimmy BarnesI'd Die To Be With You Tonight

Credits

  • Compiled By [Conceived And Compiled By]Brent James

Barcodes

  • Barcode: 0 886973 669129

The_NiGGa
Overly compressed mastering on most tracksfoobar2000 1.3.17 / Dynamic Range Meter 1.1.1log date: 2018-07-26 20:12:58--------------------------------------------------------------------------------Analyzed: Australian Pop Of The 80s Vol 2 - Live It Up--------------------------------------------------------------------------------DR Peak RMS Duration Track--------------------------------------------------------------------------------DR7 -0.61 dB -9.41 dB 3:50 01-Live It UpDR8 -0.16 dB -9.87 dB 3:12 02-Girl On The WallDR9 -0.21 dB -10.33 dB 2:52 03-After The NewsDR7 -0.01 dB -9.03 dB 3:55 04-I'd Die To Be With You TonightDR9 -0.01 dB -11.28 dB 3:29 05-Bad HabitsDR9 -0.01 dB -9.90 dB 3:58 06-Young YearsDR11 -0.01 dB -12.01 dB 4:13 07-The One I LoveDR9 -0.01 dB -9.75 dB 3:32 08-Two Strong HeartsDR9 -0.01 dB -10.08 dB 3:18 09-WordsDR8 -0.01 dB -9.74 dB 3:18 10-I've Done Everything For YouDR8 -0.50 dB -9.59 dB 3:31 11-Science FictionDR7 -0.01 dB -8.74 dB 4:19 12-State Of The HeartDR8 -0.01 dB -9.42 dB 2:51 13-Some Kind Of GirlDR7 -1.31 dB -10.09 dB 3:35 14-Be Good JohnnyDR9 -0.01 dB -11.06 dB 4:34 15-WaitingDR9 -0.01 dB -9.92 dB 3:38 16-Nobody Told MeDR9 -0.01 dB -10.48 dB 4:00 17-Bop GirlDR9 -0.01 dB -10.72 dB 3:02 18-The PartyDR8 -0.01 dB -9.35 dB 2:58 19-Two Face Have IDR8 -0.01 dB -10.34 dB 3:07 20-Hungry TownDR10 -0.10 dB -11.19 dB 3:01 01-He's My Number OneDR8 -0.01 dB -9.75 dB 2:46 02-Concrete & ClayDR8 -0.01 dB -9.54 dB 3:41 03-With Closed EyesDR8 -0.01 dB -9.68 dB 3:44 04-One SummerDR10 -0.01 dB -12.06 dB 3:22 05-Love At First NightDR11 -0.01 dB -12.96 dB 3:47 06-I've Been To Bali TooDR6 -0.60 dB -7.98 dB 4:13 07-Motor's Too FastDR8 -0.01 dB -10.03 dB 4:16 08-Blue DayDR8 -0.01 dB -8.92 dB 3:33 09-Say I Love YouDR8 -0.01 dB -9.09 dB 4:15 10-That's When I Think Of YouDR10 -0.01 dB -12.46 dB 2:37 11-Down On The BorderDR7 -1.40 dB -9.46 dB 4:06 12-Gotta Be Wrong (Way To Love)DR9 -0.01 dB -10.96 dB 3:47 13-CarmillaDR9 -0.01 dB -10.43 dB 3:33 14-If I Were A CarpenterDR8 -0.01 dB -9.71 dB 5:04 15-TouchDR9 -0.01 dB -10.40 dB 3:46 16-WinnersDR9 -0.01 dB -10.92 dB 4:34 17-We Will TogetherDR10 -0.01 dB -10.96 dB 3:36 18-Catch Me I'm FallingDR6 -1.90 dB -9.68 dB 3:52 19-BittersweetDR9 -0.01 dB -10.63 dB 4:27 20-I Wish--------------------------------------------------------------------------------Number of tracks: 40Official DR value: DR8Samplerate: 44100 HzChannels: 2Bits per sample: 16Bitrate: 1043 kbpsCodec: ALAC================================================================================
Hi, sorry just noticed this comment! I'd recommend this 1991 CD for uncompressed dynamics: https://www.discogs.com/Sharon-ONeill-Words/release/3499050
Thank you for this i was considering buying this just to get "Words" by "Sharon O'Neill" as haven't heard it sounding good on any CD i have of hers.Are their any cd's you recommend for Australian/Kiwi music in terms of audio quality?

Related to Various - Live It Up - Australian Pop Of The 80s