RockElectronicPopFolk, CountryJazzFunkHip-hopClassicalReggaeLatinScreenBluesOther recordsFor KidsBrassMiscellaneous
» » Sanford & Townsend - Duo-Glide
Sanford & Townsend - Duo-Glide MP3

Performer:

Sanford & Townsend

Title:

Duo-Glide

Genre:

Rock

MP3 album size:

1414 mb

Label:

Collectables

Rating:

4.7

Style:

Pop Rock

Country:

US

Date of release:

2005

Catalog:

COL-CD-6551

Sanford & Townsend - Duo-Glide MP3

Tracklist

1Eights And Aces
Bass – David HungateDrums – Jeff PorcaroElectric Piano [Fender Rhodes], Clavinet – Bill PayneGuitar – Fred Tackett, Otis HalePercussion – Milt HollandVocals, Harmonica – John TownsendVocals, Piano, Organ, Synthesizer – Ed Sanford
4:38
2Voodoo
Bass – David HungateCongas – Milt HollandDrums – Jeff PorcaroElectric Piano [Fender Rhodes] – Mike UtleyGuitar – Jerry McGeeGuitar, Saxophone – Otis HaleVocals – John TownsendVocals, Organ – Ed Sanford
3:50
3Mississippi Sunshine
Bass – David HungateDrums – Jeff PorcaroGuitar – Jerry McGee, Otis HalePiano – Mike UtleyVocals – John TownsendVocals [Additional] – Herb PedersenVocals, Organ – Ed Sanford
3:35
4Eye Of My Storm (Oh Woman)
Arranged By [Strings], Conductor [Strings] – Dick HalliganBass – David HungateCongas – Sam ClaytonDrums – Jeff PorcaroGuitar – Fred Tackett, Otis HalePiano – Bill PayneVocals – John TownsendVocals, Clavinet – Ed Sanford
3:30
5Starbrite
Arranged By [Strings], Conductor [Strings] – Dick HalliganBass – David HungateDrums – Jeff PorcaroElectric Piano [Fender Rhodes] – David PaichGuitar – Otis Hale, Steve CropperPercussion – Milt HollandVocals – Ed Sanford, John TownsendVocals [Additional] – Richard Torrance
3:54
6Ain't It So, Love
Bass – David HungateDrums – Jeff PorcaroGuitar – Jerry McGeeGuitar, Saxophone – Otis HalePiano – Mike UtleyVocals – John TownsendVocals, Organ, Synthesizer – Ed Sanford
3:20
7Sometimes When The Wind Blows
Arranged By [Strings], Conductor [Strings] – Dick HalliganBass – David HungateDrums – Jeff PorcaroGuitar – Fred TackettPiano – Bill PayneVocals – John Townsend
4:15
8Cryin' Like A Child
Bass – David HungateCongas – Milt HollandDrums – Mike BairdElectric Piano [Fender Rhodes], Clavinet – Bill PayneGuitar – Otis Hale, Paul BarrèreVocals – John TownsendVocals, Organ, Piano, Synthesizer – Ed Sanford
5:10
9Paradise
Bass – David HungateDrums, Cabasa – Jeff PorcaroGuitar – Fred TackettGuitar, Saxophone – Otis HalePiano – Bill PayneVocals – John TownsendVocals, Organ – Ed Sanford
3:20
10Livin's Easy
Bass – David HungateDrums – Jeff PorcaroGuitar – Otis Hale, Steve CropperPercussion – Milt HollandPiano – Mike UtleyVocals – John TownsendVocals, Organ, Synthesizer – Ed Sanford
3:20

Versions

CategoryArtistTitle (Format)LabelCategoryCountryYear
BS 3081, BSK 3081Sanford And Townsend Duo-Glide ‎(LP, Album, Win)Warner Bros. Records, Warner Bros. RecordsBS 3081, BSK 3081US1977
BSK 3081Sanford And Townsend Duo-Glide ‎(LP, Album, Jac)Warner Bros. RecordsBSK 3081US1977
K 56476Sanford & Townsend Duo Glide ‎(LP, Album)Warner Bros. RecordsK 56476UK1978
M5 3081Sanford And Townsend Duo-Glide ‎(Cass, Album)Warner Bros. RecordsM5 3081US1977
M8 3081Sanford And Townsend Duo Glide ‎(8-Trk, Album)Warner Bros. RecordsM8 3081US1977

Credits

  • Art DirectionJohn Cabalka
  • DesignGribbitt! Ltd.
  • Design [Logo]Brad Kanawyer
  • Engineer [Assistant]Paul Black
  • ManagementLarry Larson Associates, Inc.
  • Mastered ByKP
  • Photography ByRon Slenzak
  • Producer, EngineerJohn Haeny
  • Words By, Music ByEd Sanford, John Townsend
  • Art DirectionJohn Cabalka
  • DesignGribbitt! Ltd.
  • Design [Logo]Brad Kanawyer
  • Engineer [Assistant]Paul Black
  • ManagementLarry Larson Associates, Inc.
  • Mastered ByKP
  • Photography ByRon Slenzak
  • Producer, EngineerJohn Haeny
  • Words By, Music ByEd Sanford, John Townsend

Notes

All songs published by Gandharva Publishing/Edzactly Publishing-BMI
2005 Collectables, Manufactured By Rhino Entertainment Co.

Barcodes

  • Barcode (Text): 0 90431-65512 2

Companies

  • Phonographic Copyright (p) – Warner Bros. Records Inc.
  • Copyright (c) – Collectables Records Corp.
  • Licensed From – Warner Bros. Records Inc.
  • Recorded At – Sunset Sound
  • Manufactured By – Rhino Entertainment Company
  • Distributed By – Collectables Records Corp.

Video

Topmen
foobar2000 1.3.17 / Dynamic Range Meter 1.1.1
log date: 2018-05-07 19:59:38

--------------------------------------------------------------------------------
Analyzed: Sanford Townsend Band / Duo Glide
--------------------------------------------------------------------------------

DR Peak RMS Duration Track
--------------------------------------------------------------------------------
DR13 0.00 dB -15.24 dB 3:22 01-Paradise
DR13 0.00 dB -16.09 dB 3:21 02-Ain`t It So, Love
DR13 0.00 dB -15.50 dB 5:10 03-Cryin` Like A Child
DR12 0.00 dB -16.30 dB 3:19 04-Livin`s Easy
DR13 0.00 dB -15.70 dB 3:56 05-Starbrite
DR14 0.00 dB -16.11 dB 3:51 06-Voodoo
DR13 0.00 dB -15.80 dB 3:37 07-Mississippi Sunshine
DR13 0.00 dB -16.40 dB 4:32 08-Eights And Aces
DR15 -0.01 dB -18.83 dB 4:17 09-Sometimes When The Wind Blows
DR13 -0.12 dB -15.69 dB 3:25 10-Eye Of My Storm (Oh Woman)
--------------------------------------------------------------------------------

Number of tracks: 10
Official DR value: DR13

Samplerate: 44100 Hz
Channels: 2
Bits per sample: 16
Bitrate: 911 kbps
Codec: ALAC
================================================================================

Related to Sanford & Townsend - Duo-Glide