RockElectronicPopFolk, CountryJazzFunkHip-hopClassicalReggaeLatinScreenBluesOther recordsFor KidsBrassMiscellaneous
» » John Valenti - Anything You Want
John Valenti - Anything You Want MP3

Performer:

John Valenti

Title:

Anything You Want

Genre:

Jazz / Funk

MP3 album size:

1449 mb

Label:

P-Vine Records

Rating:

4.8

Style:

Soul, Funk, Disco

Country:

Japan

Date of release:

2006

Catalog:

PCD-23853

John Valenti - Anything You Want MP3

Tracklist

1Save Me3:05
2I Wrote This Song For You3:16
3The Day After You3:30
4I Love Her Too3:30
5Higher And Higher3:08
6Morning Song3:10
7Why Don't We Fall In Love3:34
8Anything You Want3:16
9That's The Way Life Goes3:24
10Was It Something I Said3:23
11Time After Time3:52

Versions

CategoryArtistTitle (Format)LabelCategoryCountryYear
ST-50012John Valenti Anything You Want ‎(LP, Album)Ariola AmericaST-50012US1976
ST-50012John Valenti Anything You Want ‎(LP, Album)Ariola AmericaST-50012New Zealand1976
PLP-6848John Valenti Anything You Want ‎(LP, Album, RE)P-Vine RecordsPLP-6848Japan2012
PCD-4535John Valenti Anything You Want ‎(CD, Album, Ltd, RE)P-Vine RecordsPCD-4535Japan2013
VIP-6381, ARA-6005John Valenti Anything You Want ‎(LP, Album, Promo)Ariola America, Ariola AmericaVIP-6381, ARA-6005Japan1977

Credits

  • ArtworkRuby Mazur
  • BassJim Hughart
  • DrumsEd Greene , Jim Gordon
  • EngineerGrover Helsley, Rich Schmitt
  • Executive-ProducerPhil Jones
  • GuitarDean Parks, Jay Graden, John Pechickjian, Thom Rotella
  • KeyboardsJoey Spinazola, Mike Melvoin, Sonny Burke
  • Liner Notes金澤寿和
  • PercussionVince Charles
  • Photography ByPaul Levy
  • ProducerBob Cullen

Notes

-Japanese Edition, CD format (LP sleeve version)-. First CD reissue.

Recorded At RCA's Studio, Hollywood, California

Barcodes

  • Barcode: 4 995879 238530

Video

Pedar
:-(

foobar2000 1.3.17 / Dynamic Range Meter 1.1.1
log date: 2018-11-13 21:59:51

--------------------------------------------------------------------------------
Analyzed: John Valenti / Anything You Want [JP 2006 CD]
--------------------------------------------------------------------------------

DR Peak RMS Duration Track
--------------------------------------------------------------------------------
DR6 -0.10 dB -7.71 dB 3:23 01-Anything You Want
DR6 -0.10 dB -7.54 dB 3:44 02-Was It Something I Said
DR7 -0.10 dB -9.26 dB 4:17 03-I Wrote This Song For You
DR8 -0.10 dB -10.26 dB 3:44 04-Morning Song
DR6 -0.10 dB -7.81 dB 3:26 05-Time After Time
DR6 -0.10 dB -7.17 dB 3:12 06-Why Don't We Fall In Love
DR7 -0.10 dB -9.03 dB 3:11 07-Higher & Higher
DR7 -0.10 dB -8.55 dB 3:10 08-Save Me
DR7 -0.10 dB -9.12 dB 3:22 09-The Day After You
DR6 -0.10 dB -9.71 dB 3:25 10-I Love Her Too
DR7 -0.10 dB -8.08 dB 3:27 11-That's The Way Life Goes
--------------------------------------------------------------------------------

Number of tracks: 11
Official DR value: DR7

Samplerate: 44100 Hz
Channels: 2
Bits per sample: 16
Bitrate: 1006 kbps
Codec: ALAC
================================================================================

Related to John Valenti - Anything You Want